#TITLE:Rose;
#SUBTITLE:Dead Master;
#ARTIST:9You;
#TITLETRANSLIT:;
#SUBTITLETRANSLIT:;
#ARTISTTRANSLIT:;
#CREDIT:;
#BANNER:bn.jpg;
#BACKGROUND:bg.jpg;
#LYRICSPATH:;
#CDTITLE:cd.png;
#MUSIC:rose.mp3;
#OFFSET:-0.811;
#SAMPLESTART:69.745;
#SAMPLELENGTH:12.000;
#SELECTABLE:YES;
#BPMS:0.000=87.039;
#STOPS:;
#BGCHANGES:;
// cache tags:
#FIRSTBEAT:0.000;
#LASTBEAT:181.250;
#SONGFILENAME:Songs/poyect/Rose (9You)/rose.sm;
#HASMUSIC:1;
#HASBANNER:1;
#MUSICLENGTH:126.466;
// end cache tags

//---------------dance-single - ----------------
#NOTES:
     dance-single:
     :
     Hard:
     1:
     1.000,1.000,1.000,0.040,1.000,594.000,302.000,5.000,0.000,40.000:  // measure 1
1000
0000
0000
0000
0001
0001
0000
0001
0100
0010
0000
0010
0000
1001
0001
0100
,  // measure 2
0000
0010
0010
0001
0000
1000
0010
0010
0100
0001
0001
0001
1000
0010
0010
0010
,  // measure 3
0000
0001
0001
0000
0010
1000
0001
1000
0110
0000
1001
0000
0110
0000
1001
0000
,  // measure 4
0101
0101
1001
0000
0110
0000
1001
1001
0010
0101
0001
1000
0110
0101
1001
0000
,  // measure 5
0110
0101
0101
0000
1001
0000
0110
0101
1001
0010
0101
0101
1001
1001
0110
0100
,  // measure 6
0000
1001
0101
0110
0001
0000
0110
0001
1001
0110
0101
0000
1010
0001
0110
1001
,  // measure 7
0010
0100
0101
1001
1001
0000
0110
0101
1010
1001
0110
0000
0101
1110
0001
0110
,  // measure 8
0100
0001
1000
0001
0110
1001
0010
0101
1000
0000
0110
1001
0110
0100
0001
1001
,  // measure 9
0101
0101
1001
0010
1010
0101
0100
1110
0000
0110
0110
0001
1000
0001
0110
0110
,  // measure 10
1001
0110
0101
0001
0000
1001
1010
0110
1001
0010
0110
0110
0000
1001
1001
0110
,  // measure 11
0110
0001
1001
0000
0110
1001
0001
0100
0101
0001
0000
0001
0001
0000
0000
0010
,  // measure 12
0010
0010
0000
0001
0010
0100
1100
0001
0110
1000
0110
0001
0010
0111
1000
0110
,  // measure 13
0000
0011
0011
0100
1100
0010
0001
0000
0011
0100
1000
0110
0010
0001
0010
0011
,  // measure 14
0100
1100
0010
0000
0010
0011
0100
1100
0010
0010
0011
0011
0100
0010
0010
0100
,  // measure 15
1000
0110
0010
0011
0000
0100
1100
0010
0010
0011
0000
0100
1100
0010
0010
0021
,  // measure 16
0000
0130
1100
0010
0011
0010
0001
0110
1100
0010
0010
0011
0000
0100
1100
0010
,  // measure 17
0011
0100
1100
0010
0011
0100
0010
0011
0100
1100
0010
0110
0000
0011
0011
0100
,  // measure 18
1100
0010
0010
0001
0010
0100
1000
0110
0010
0001
0010
0100
1000
0100
0010
0010
,  // measure 19
0011
0100
1000
0100
0010
0011
0010
0110
0000
0010
0011
0100
1100
0010
0010
0011
,  // measure 20
0000
0002
0000
0000
0000
0000
0000
0000
0000
0000
0000
0000
0000
0000
0000
0003
,  // measure 21
0100
0100
0100
0100
0100
0100
0100
0100
0100
0100
0100
0100
0100
0100
0100
0100
,  // measure 22
0100
0010
1000
0011
0101
0000
0101
0001
1000
0101
0000
0000
0101
0000
1001
0000
,  // measure 23
0101
0101
1010
0101
1001
0110
1001
0101
,  // measure 24
1001
0110
0001
1000
0110
1001
1011
0100
1001
0110
0001
1000
0110
1001
0110
0000
,  // measure 25
1001
0001
0111
1000
0001
0110
0101
0001
1000
0010
0100
0001
1011
0100
0110
0010
,  // measure 26
0101
0001
1000
0110
0110
1001
0001
1000
0110
0101
1000
0010
0110
0001
0001
1000
,  // measure 27
1010
0110
1001
0010
0100
0110
0010
1000
0110
0001
0110
0010
1010
0001
1000
0101
,  // measure 28
0101
1001
0010
0101
0101
1110
1101
0101
0100
0011
0111
0111
1011
0110
0110
0110
,  // measure 29
0111
0111
0000
0011
1010
1110
0101
0111
0000
0111
0111
1110
0110
0101
0000
0111
,  // measure 30
0111
0111
0011
0010
1000
1110
1110
0110
0111
0000
0111
0111
1010
1110
0000
0111
,  // measure 31
0111
0111
0111
0100
0011
1011
0111
0000
0110
0110
0110
0110
1000
1110
1110
0110
,  // measure 32
0000
0101
0011
1001
0000
0101
0101
0000
0101
0000
0101
1010
0010
1000
0101
0101
,  // measure 33
0101
0000
0001
0101
0000
0101
0101
0000
1010
0000
1010
0000
1010
0110
0101
0000
,  // measure 34
0101
0001
0100
0001
0101
0001
0100
0101
0000
1001
0010
1010
0101
0000
1010
0001
,  // measure 35
0101
0000
1001
0001
0100
0101
0001
0100
0101
0000
0101
0001
0100
0000
0101
0000
,  // measure 36
0111
1000
0110
0001
0010
0100
1100
0010
0011
0000
0011
1000
0110
0000
0011
0011
,  // measure 37
0100
1000
0100
0010
0011
0011
0100
1000
0110
0001
0010
0011
0100
0010
0010
0011
,  // measure 38
0100
0110
0001
0010
1100
0100
0010
0011
0011
0100
1000
0100
0010
0011
0010
0011
,  // measure 39
0100
1100
0010
0010
0011
0001
0010
0100
0100
1100
0010
0011
0000
0111
1000
0110
,  // measure 40
0000
0010
0011
0100
1000
0100
0010
0011
0011
0000
1100
0110
0000
0011
0011
0100
,  // measure 41
1100
0010
0000
0011
0011
0100
1000
0100
0010
0010
0011
0000
0111
1000
0100
0010
,  // measure 42
0111
0000
0021
0100
1030
0100
0010
0010
0001
0020
0000
1130
0110
0000
0011
0010
,  // measure 43
0000
0011
0100
1100
0010
0010
0011
0000
0011
0100
1000
0110
0010
0001
0010
0100
,  // measure 44
0010
0010
0010
0000
0000
0001
0001
0000
0000
0000
0000
0000
0000
0000
1000
1000
,  // measure 45
0000
0000
0010
0000
0000
0100
0000
0000
0000
0000
0010
0000
0010
0000
0002
0000
,  // measure 46
0000
0000
0000
0000
0000
0003
0000
0000
0000
0000
0000
0000
0000
0000
0000
0000
;
